Share/Bookmark

Inocente y Delincuente - 1987 - VHSRip XviD - Cine Venezolano - Audio Latino

No comment yet


Sinopsis: Historia de una joven que movida por las circunstancias de su entorno social, cae en la delincuencia, las drogas y la prostitución, abriéndole al espectador un submundo de narcotráfico, abuso de autoridad policiaca, homosexualidad y violencia.

Datos Película:
Rls date : 25-12-2011
Store date : 1987
Rip : gabrielduarte77
Upload : aRkAnGeL
WebSite : www.ultraforos.com
Director : Daniel Oropeza
Actores : Rosario Prieto, Imperio Zanmattaro, Elisa Escamez, Isabel Hungria, Jose Leon, Romelia Aguero, Antonio Briceño, Marcos Campos, Carlos Carrera, Alejandro Corona, William Moreno, Raúl Medina y Bárbara Mosquera.
Idioma : Español.
País : Venezuela.
Género : Drama, Comedia.
Tiempo : 90 Minutos.

Caps:


Enlaces para poder Descargar La Película:
Part1: http://oron.com/bx3kgi8reb2b
Part2: http://depositfiles.com/files/djbdyltwx
Part3: http://www.filefactory.com/file/c02de3a/n/CV.Inocente.y.Delincuente.1987__by.gabrielduarte77_upload.aRkAnGeL.part3.rar
Part4: http://www.fileserve.com/file/W6vkGw6
Part5: http://netload.in/datei5ODs5L7O4t/CV.Inocente.y.Delincuente.1987_%20by.gabrielduarte77_upload.aRkAnGeL.part5.rar.htm
Part5: http://oron.com/vxqe7dakmgy1 - otra parte5 porsi -
Part6: http://www.filesonic.com/file/GjRmtis/CV.Inocente.y.Delincuente.1987_ by.gabrielduarte77_upload.aRkAnGeL.part6.rar


Datos del Ripeo:
Complete name : CV.Inocente.y.Delincuente.1987.VHSRip_ by.gabrielduarte77_upload.aRkAnGeL.avi
Format : AVI
Format/Info : Audio Video Interleave
File size : 681 MiB
Duration : 1h 36mn
Overall bit rate : 986 Kbps
Writing application : MEncoder SVN-r31918
Writing library : MPlayer
Original source form : DVD ripped by acidrip.sf.net
Video #0
ID : 0
Format : MPEG-4 Visual
Format profile : Simple@L1
Format settings, BVOP : No
Format settings, QPel : No
Format settings, GMC : No warppoints
Format settings, Matrix : Default (H.263)
Codec ID : FMP4
Duration : 1h 36mn
Bit rate : 846 Kbps
Width : 480 pixels
Height : 360 pixels
Display aspect ratio : 4:3
Frame rate : 29.970 fps
Color space : YUV
Chroma subsampling : 4:2:0
Bit depth : 8 bits
Scan type : Progressive
Compression mode : Lossy
Bits/(Pixel*Frame) : 0.163
Stream size : 584 MiB (86%)
Writing library : Lavc52.84.2
Audio #1
ID : 1
Format : MPEG Audio
Format version : Version 1
Format profile : Layer 3
Mode : Joint stereo
Mode extension : MS Stereo
Codec ID : 55
Codec ID/Hint : MP3
Duration : 1h 36mn
Bit rate mode : Variable
Bit rate : 128 Kbps
Channel(s) : 2 channels
Sampling rate : 48.0 KHz
Compression mode : Lossy
Stream size : 87.4 MiB (13%)
Alignment : Aligned on interleaves
Interleave, duration : 24 ms (0.72 video frame)
Interleave, preload duration : 491 ms

Publicar un comentario en la entrada

Página Principal | ABOUT

Copyright © 2011-2012 Descargas Directas Venezuela | Powered by BLOGGER | Template by 54BLOGGER